osu file format v14

[General]
AudioFilename: White Eternity.mp3
AudioLeadIn: 1500
PreviewTime: 165217
Countdown: 0
SampleSet: Soft
StackLeniency: 0.7
Mode: 0
LetterboxInBreaks: 1
WidescreenStoryboard: 0

[Editor]
DistanceSpacing: 0.9
BeatDivisor: 4
GridSize: 16
TimelineZoom: 2.2

[Metadata]
Title:White Eternity
TitleUnicode:White Eternity
Artist:Nitta Emi
ArtistUnicode:新田恵海
Creator:Sellenite
Version:Normal
Source:アストラエアの白き永遠
Tags:FAVORITE ASTRAL ARIA アストラル アリア Astralair no Shiroki Towa yuuki elfin RUNE galgame opening full Sakaue Nachi -Yuzuriha
BeatmapID:650282
BeatmapSetID:276963

[Difficulty]
HPDrainRate:4
CircleSize:4
OverallDifficulty:4
ApproachRate:5
SliderMultiplier:1.1
SliderTickRate:1

[Events]
//Background and Video events
0,0,"bg.jpg",0,0
//Break Periods
2,119374,128961
2,195080,199073
2,211260,220646
//Storyboard Layer 0 (Background)
//Storyboard Layer 1 (Fail)
//Storyboard Layer 2 (Pass)
//Storyboard Layer 3 (Foreground)
//Storyboard Sound Samples

[TimingPoints]
723,337.078651685393,4,2,2,50,1,0
4767,-125,4,2,2,50,0,0
27689,-100,4,2,1,60,0,1
38475,-125,4,2,2,50,0,0
60048,-100,4,2,1,50,0,0
70835,-100,4,2,1,60,0,0
87015,-100,4,2,1,70,0,1
108588,-100,4,2,1,60,0,0
119374,-100,4,2,1,50,0,0
140947,-100,4,2,1,60,0,0
151734,-100,4,2,1,65,0,0
165217,-100,4,2,1,40,0,0
166565,-100,4,2,1,65,0,0
167914,-100,4,2,1,70,0,1
189487,-100,4,2,1,60,0,0
211060,-125,4,2,2,50,0,0
227239,-100,4,2,1,60,0,0
232633,-100,4,2,1,70,0,1
254206,-100,4,2,1,60,0,0
265076,-100,4,2,1,30,0,0
275442,-100,4,2,2,20,0,0

[Colours]
Combo1 : 220,185,255
Combo2 : 255,166,255
Combo3 : 187,187,255
Combo4 : 155,255,255
Combo5 : 255,172,214

[HitObjects]
431,225,5442,6,0,B|443:254|441:284|430:310,1,88,0|2,0:0|0:0,0:0:0:0:
379,382,6116,1,8,0:0:0:0:
308,328,6453,1,0,0:0:0:0:
225,358,6790,2,0,L|133:349,1,88,0|0,0:0|0:0,0:0:0:0:
98,329,7296,2,0,B|71:290|77:240|106:208,1,132,0|0,0:0|0:0,0:0:0:0:
194,211,8138,1,0,0:0:0:0:
217,126,8475,1,0,0:0:0:0:
296,164,8812,6,0,B|349:175|349:175|441:147,2,132,2|0|0,0:0|0:0|0:0,0:0:0:0:
296,252,10161,1,4,0:0:0:0:
215,215,10498,1,0,0:0:0:0:
166,288,10835,2,0,L|177:375,1,88,8|0,0:0|0:0,0:0:0:0:
265,376,11509,6,0,B|317:372|347:346|347:346|393:342|446:379,1,176,4|0,0:0|0:0,0:0:0:0:
501,317,12520,1,0,0:0:0:0:
492,273,12689,2,0,L|478:134,1,132,0|0,0:0|0:0,0:0:0:0:
427,69,13531,1,2,0:0:0:0:
368,135,13869,1,0,0:0:0:0:
310,201,14206,6,0,B|277:166|223:167|190:200,2,132,0|0|0,0:0|0:0|0:0,0:0:0:0:
250,266,15554,2,0,B|214:298|161:300|121:273|105:234,1,176,0|8,0:0|0:0,0:0:0:0:
120,147,16565,1,0,0:0:0:0:
203,115,16902,6,0,B|214:144|209:175|191:198,2,88,4|0|0,0:0|0:0|0:0,0:0:0:0:
249,40,17914,1,0,0:0:0:0:
292,42,18082,2,0,L|423:43,1,132,0|0,0:0|0:0,0:0:0:0:
484,108,18925,1,0,0:0:0:0:
459,192,19262,1,0,0:0:0:0:
378,155,19599,6,0,B|358:198|375:247|414:270,2,132,2|0|0,0:0|0:0|0:0,0:0:0:0:
395,114,20779,2,0,B|316:124|316:124|263:111,1,132,4|0,0:0|0:0,0:0:0:0:
208,178,21621,2,0,B|183:196|152:201|125:194,1,88,8|0,0:0|0:0,0:0:0:0:
41,165,22296,6,0,L|58:34,1,132,0|0,0:0|0:0,0:0:0:0:
145,26,23138,2,0,L|152:120,1,88,0|0,0:0|0:0,0:0:0:0:
156,157,23644,1,4,0:0:0:0:
236,193,23981,1,0,0:0:0:0:
313,151,24318,1,0,0:0:0:0:
327,64,24655,1,0,0:0:0:0:
411,88,24992,6,0,B|434:158|434:158|419:214,2,132,0|0|0,0:0|0:0|0:0,0:0:0:0:
327,64,26340,1,2,0:0:0:0:
239,45,26678,1,0,0:0:0:0:
262,129,27015,2,0,L|166:120,1,88,0|8,0:0|0:0,0:0:0:0:
90,172,27689,6,0,L|91:281,1,110,4|8,0:0|0:0,0:0:0:0:
102,330,28194,2,0,B|136:378|204:384|246:344,1,165,0|8,0:0|0:0,0:0:0:0:
321,278,29037,2,0,L|430:283,1,110,4|8,0:0|0:0,0:0:0:0:
467,250,29543,2,0,L|462:140,1,110,0|0,0:0|0:0,0:0:0:0:
460,90,30048,1,8,0:0:0:0:
384,25,30385,5,4,0:0:0:0:
331,108,30722,1,8,0:0:0:0:
278,192,31060,1,2,0:0:0:0:
198,132,31397,1,8,0:0:0:0:
207,32,31734,2,0,B|168:27|133:47|114:77,1,110,4|8,0:0|0:0,0:0:0:0:
99,125,32239,1,0,0:0:0:0:
99,125,32408,2,0,L|107:243,1,110,2|8,0:0|0:0,0:0:0:0:
204,224,33082,6,0,B|254:204|254:204|309:214,1,110,4|8,0:0|0:0,0:0:0:0:
342,176,33588,2,0,B|376:129|359:62|307:36,1,165,0|8,0:0|0:0,0:0:0:0:
258,27,34262,1,0,0:0:0:0:
258,27,34430,2,0,L|147:27,1,110,4|8,0:0|0:0,0:0:0:0:
51,48,35105,1,2,0:0:0:0:
94,136,35442,1,8,0:0:0:0:
70,232,35779,6,0,B|117:238|177:213|177:213|169:324,1,220,4|2,0:0|0:0,0:0:0:0:
260,361,36790,1,8,0:0:0:0:
260,361,36958,2,0,L|268:251,1,110,8|8,0:0|0:0,0:0:0:0:
256,155,37633,1,8,0:0:0:0:
256,155,38475,6,0,L|343:152,1,88,8|0,0:0|0:0,0:0:0:0:
431,149,39149,1,0,3:0:0:0:
460,232,39487,2,0,L|452:286,2,44,0|0|2,0:0|0:0|0:0,0:0:0:0:
372,229,40161,2,0,B|289:258|289:258|250:242|203:243,1,176,0|0,0:0|0:0,0:0:0:0:
192,330,41172,6,0,B|161:325|131:332|107:347,1,88,4|0,0:0|0:0,0:0:0:0:
31,302,41846,1,0,3:0:0:0:
63,220,42183,2,0,L|66:176,1,44,0|0,0:0|0:0,0:0:0:0:
44,137,42520,2,0,B|32:108|35:77|50:52,1,88,2|0,0:0|0:0,0:0:0:0:
135,32,43194,2,0,B|179:44|179:44|220:37,1,88,0|0,3:0|0:0,0:0:0:0:
261,55,43700,1,0,0:0:0:0:
274,96,43869,6,0,L|268:186,1,88,4|0,0:0|0:0,0:0:0:0:
195,233,44543,2,0,B|183:262|185:293|198:318,1,88,0|0,3:0|0:0,0:0:0:0:
227,351,45048,1,0,0:0:0:0:
227,351,45217,2,0,L|316:349,1,88,2|0,0:0|0:0,0:0:0:0:
392,307,45891,2,0,B|373:283|365:254|366:225,1,88,0|0,3:0|0:0,0:0:0:0:
453,208,46565,6,0,B|499:165|502:96|466:49,1,176,4|0,0:0|3:0,0:0:0:0:
380,25,47576,2,0,L|337:58,1,44,,,0:0:0:0:
310,78,47914,2,0,B|280:68|250:68|222:75,1,88,2|0,0:0|0:0,0:0:0:0:
137,94,48588,1,0,3:0:0:0:
66,41,48925,1,0,0:0:0:0:
34,123,49262,6,0,L|40:254,1,132,8|0,0:0|0:0,0:0:0:0:
60,294,49936,2,0,L|147:297,1,88,0|0,3:0|0:0,0:0:0:0:
200,368,50610,2,0,B|237:318|306:308|356:339,1,176,2|0,0:0|3:0,0:0:0:0:
439,372,51621,1,0,0:0:0:0:
493,302,51958,6,0,L|502:214,1,88,4|0,0:0|0:0,0:0:0:0:
414,201,52633,2,0,B|373:225|322:212|296:175,1,132,0|0,3:0|0:0,0:0:0:0:
291,218,53307,2,0,L|282:306,1,88,2|0,0:0|0:0,0:0:0:0:
205,349,53981,2,0,L|117:341,1,88,0|0,3:0|0:0,0:0:0:0:
89,306,54487,1,0,0:0:0:0:
89,306,54655,6,0,L|80:218,1,88,4|0,0:0|0:0,0:0:0:0:
44,138,55329,2,0,B|46:88|87:50|138:47|174:70,2,176,0|2|0,3:0|0:0|3:0,0:0:0:0:
80,218,57015,1,0,0:0:0:0:
159,256,57352,6,0,L|246:245,1,88,4|0,0:0|0:0,0:0:0:0:
300,313,58026,2,0,L|387:323,1,88,0|0,3:0|0:0,0:0:0:0:
423,299,58531,2,0,B|450:260|453:213|436:173,1,132,0|0,0:0|0:0,0:0:0:0:
363,123,59374,2,0,L|276:133,1,88,0|0,0:0|3:0,0:0:0:0:
207,61,60048,5,4,0:0:0:0:
148,140,60385,1,0,3:0:0:0:
89,219,60722,2,0,B|75:255|82:294|103:323,1,110,0|0,3:0|3:0,0:0:0:0:
192,368,61397,2,0,B|205:331|198:292|177:263,1,110,0|0,3:0|3:0,0:0:0:0:
239,186,62071,1,0,3:0:0:0:
320,242,62408,1,0,3:0:0:0:
405,191,62745,6,0,L|409:81,2,110,0|0|0,3:0|3:0|3:0,0:0:0:0:
482,252,63756,2,0,B|499:287|496:326|478:357,1,110,0|0,3:0|3:0,0:0:0:0:
395,302,64430,1,0,3:0:0:0:
309,351,64767,1,0,3:0:0:0:
260,264,65105,1,0,3:0:0:0:
346,216,65442,6,0,L|341:106,1,110,0|0,3:0|3:0,0:0:0:0:
264,43,66116,2,0,B|212:58|212:58|157:46,1,110,0|0,3:0|3:0,0:0:0:0:
114,135,66790,2,0,B|85:108|44:105|12:122,2,110,0|0|0,3:0|3:0|3:0,0:0:0:0:
153,225,67801,1,0,3:0:0:0:
243,264,68138,6,0,B|227:300|193:321|158:324,1,110,0|0,3:0|3:0,0:0:0:0:
68,369,68812,2,0,L|38:263,1,110,0|0,3:0|3:0,0:0:0:0:
83,175,69487,1,0,3:0:0:0:
28,92,69824,1,0,3:0:0:0:
107,33,70161,2,0,L|161:30,2,55,8|8|4,0:3|0:3|0:3,0:0:0:0:
151,121,70835,6,0,B|199:119|199:119|257:98,1,110,4|8,0:0|0:0,0:0:0:0:
338,155,71509,2,0,L|327:264,1,110,2|8,0:0|0:0,0:0:0:0:
379,348,72183,1,0,3:0:0:0:
469,306,72520,2,0,B|482:269|473:231|449:204,2,110,8|0|8,0:0|3:0|0:0,0:0:0:0:
379,348,73531,6,0,B|341:342|320:326|320:326|265:343|216:317|216:317|205:364,1,220,2|4,3:0|0:3,0:0:0:0:
108,341,74543,2,0,L|106:174,1,165,4|0,0:0|0:0,0:0:0:0:
106,126,75217,1,8,0:0:0:0:
191,73,75554,2,0,B|229:62|267:72|294:96,1,110,8|8,0:0|0:0,0:0:0:0:
333,187,76228,6,0,L|327:296,1,110,4|8,0:0|0:0,0:0:0:0:
296,336,76734,2,0,B|263:357|222:354|194:332,1,110,0|0,0:0|0:0,0:0:0:0:
164,292,77239,1,8,0:0:0:0:
172,193,77576,2,0,L|178:84,1,110,4|8,0:0|0:0,0:0:0:0:
274,60,78251,1,0,3:0:0:0:
369,35,78588,1,8,0:0:0:0:
418,120,78925,6,0,B|435:155|432:194|413:225,1,110,4|8,0:0|0:0,0:0:0:0:
330,279,79599,2,0,L|454:272,2,110,0|8|4,3:0|0:0|0:0,0:0:0:0:
238,241,80610,1,8,0:0:0:0:
295,160,80947,2,0,L|419:153,1,110,0|8,3:0|0:0,0:0:0:0:
480,218,81621,5,12,0:0:0:0:
446,311,81958,1,8,0:0:0:0:
359,262,82296,1,12,0:0:0:0:
325,355,82633,1,12,0:0:0:0:
233,317,82970,2,0,L|123:313,1,110,12|12,0:0|0:0,0:0:0:0:
156,220,83644,2,0,L|46:216,2,110,8|8|4,0:0|0:0|0:0,0:0:0:0:
256,192,84402,12,0,86340,3:0:0:0:
395,289,87015,6,0,L|409:180,1,110,4|8,0:0|0:0,0:0:0:0:
399,131,87520,2,0,B|372:94|321:85|281:110|265:146,1,165,8|8,0:0|0:0,0:0:0:0:
204,226,88363,1,4,0:0:0:0:
138,152,88700,2,0,L|124:43,2,110,8|2|8,0:0|0:0|0:0,0:0:0:0:
68,223,89711,6,0,B|49:257|50:296|67:327,1,110,4|8,0:0|0:0,0:0:0:0:
108,355,90217,2,0,L|215:331,1,110,8|0,0:0|0:0,0:0:0:0:
264,334,90722,2,0,L|318:340,1,55,8|4,0:0|0:0,0:0:0:0:
324,240,91228,2,0,L|378:246,1,55,0|8,0:0|0:0,0:0:0:0:
460,301,91734,2,0,B|479:267|479:228|464:195,1,110,8|8,0:0|0:0,0:0:0:0:
373,154,92408,6,0,L|481:136,1,110,4|8,0:0|0:0,0:0:0:0:
498,38,93082,1,2,0:0:0:0:
400,55,93419,1,8,0:0:0:0:
400,55,93588,2,0,B|341:65|341:65|283:55,1,110,4|0,0:0|0:0,0:0:0:0:
242,49,94093,2,0,L|244:158,1,110,8|2,0:0|0:0,0:0:0:0:
308,233,94767,1,8,0:0:0:0:
214,266,95105,6,0,L|102:262,1,110,4|8,0:0|0:0,0:0:0:0:
61,237,95610,2,0,B|45:200|46:161|59:127,1,110,2|0,0:0|0:0,0:0:0:0:
94,95,96116,1,8,0:0:0:0:
94,95,96284,2,0,B|160:104|205:71|205:71|215:118,1,165,4|8,0:0|0:0,0:0:0:0:
283,190,97127,1,2,0:0:0:0:
342,110,97464,1,8,0:0:0:0:
410,181,97801,6,0,L|406:290,1,110,4|8,0:0|0:0,0:0:0:0:
334,358,98475,2,0,B|270:356|207:362,1,110,0|8,0:0|0:0,0:0:0:0:
137,312,99149,1,4,0:0:0:0:
188,227,99487,1,8,0:0:0:0:
97,187,99824,1,2,0:0:0:0:
148,102,100162,1,8,0:0:0:0:
237,143,100498,6,0,B|272:160|311:154|340:132,1,110,4|8,0:0|0:0,0:0:0:0:
423,186,101172,2,0,L|416:295,1,110,2|8,0:0|0:0,0:0:0:0:
381,331,101678,2,0,B|326:314|326:314|218:329,1,165,4|4,0:0|0:0,0:0:0:0:
159,250,102520,2,0,L|274:233,1,110,4|4,0:0|0:0,0:0:0:0:
325,153,103194,6,0,B|343:118|339:79|318:49,1,110,4|8,0:0|0:0,0:0:0:0:
279,19,103700,1,2,0:0:0:0:
185,50,104037,2,0,L|117:46,1,55,8|8,0:0|0:0,0:0:0:0:
80,45,104374,2,0,L|93:209,1,165,4|8,0:0|0:0,0:0:0:0:
192,218,105217,2,0,L|183:327,1,110,0|8,0:0|0:0,0:0:0:0:
280,315,105891,6,0,B|311:281|361:274|401:299|418:335,2,165,4|4|12,0:0|0:0|0:0,0:0:0:0:
234,227,107239,1,4,0:0:0:0:
303,157,107576,2,0,L|417:149,1,110,8|8,0:0|0:0,0:0:0:0:
464,64,108251,1,8,0:0:0:0:
372,27,108588,6,0,L|262:34,1,110,4|8,0:0|0:0,0:0:0:0:
213,119,109262,2,0,B|176:132|137:122|111:96,1,110,0|8,0:0|0:0,0:0:0:0:
36,160,109936,2,0,L|45:269,1,110,0|8,3:0|0:0,0:0:0:0:
117,337,110610,1,2,0:0:0:0:
180,261,110947,1,8,0:0:0:0:
242,183,111284,6,0,B|273:208|311:213|346:203,1,110,4|8,0:0|0:0,0:0:0:0:
354,301,111958,2,0,B|391:288|429:297|457:320,1,110,2|8,0:0|0:0,0:0:0:0:
494,227,112633,2,0,L|501:117,1,110,4|8,0:0|0:0,0:0:0:0:
474,75,113138,1,0,0:0:0:0:
474,75,113307,2,0,L|362:87,1,110,2|8,0:0|0:0,0:0:0:0:
327,178,113981,6,0,B|293:159|253:160|222:178,1,110,4|8,0:0|0:0,0:0:0:0:
209,130,114487,2,0,B|164:92|98:99|61:140,1,165,0|8,0:0|0:0,0:0:0:0:
27,234,115329,2,0,L|35:343,1,110,4|8,0:0|0:0,0:0:0:0:
128,376,116003,1,0,3:0:0:0:
157,281,116340,1,8,0:0:0:0:
243,329,116678,6,0,B|278:347|317:338|342:313,1,110,4|8,0:0|0:0,0:0:0:0:
379,219,117352,2,0,L|366:109,1,110,2|8,0:0|0:0,0:0:0:0:
328,78,117857,1,8,0:0:0:0:
244,131,118194,2,0,L|256:240,1,110,8|8,0:0|0:0,0:0:0:0:
69,275,130161,6,0,L|62:165,1,110,4|0,0:0|3:0,0:0:0:0:
91,70,130835,1,0,3:0:0:0:
172,125,131172,1,8,0:0:0:0:
237,51,131509,2,0,B|292:24|360:60|368:132|330:175,1,220,0|0,3:0|3:0,0:0:0:0:
240,218,132520,1,8,0:0:0:0:
271,124,132857,6,0,L|392:130,2,110,0|0|0,3:0|3:0|3:0,0:0:0:0:
183,170,133869,1,8,0:0:0:0:
226,258,134206,2,0,B|259:279|301:272|326:246,1,110,0|0,3:0|3:0,0:0:0:0:
425,245,134880,2,0,L|421:366,1,110,0|8,3:0|0:0,0:0:0:0:
324,374,135554,5,0,3:0:0:0:
259,299,135891,1,0,3:0:0:0:
162,321,136228,2,0,L|173:380,2,55,0|0|8,3:0|3:0|0:0,0:0:0:0:
75,273,136902,2,0,L|92:164,1,110,0|8,3:0|0:0,0:0:0:0:
179,118,137576,2,0,B|206:147|246:154|280:141,1,110,0|8,3:0|0:0,0:0:0:0:
362,84,138251,6,0,L|365:29,2,55,0|0|8,3:0|0:0|0:0,0:0:0:0:
427,158,138925,2,0,L|423:212,2,55,0|0|8,3:0|0:0|0:0,0:0:0:0:
330,178,139599,1,0,3:0:0:0:
362,84,139936,1,8,0:0:0:0:
264,101,140273,2,0,B|207:100|154:90,1,110,8|8,0:0|0:3,0:0:0:0:
120,182,140947,6,0,B|62:186|20:146|20:146|26:257,1,220,4|2,0:0|0:0,0:0:0:0:
95,326,141958,1,8,0:0:0:0:
182,278,142296,2,0,B|217:260|256:260|289:273,1,110,0|8,3:0|0:0,0:0:0:0:
326,181,142970,2,0,B|361:163|400:163|433:176,1,110,2|8,0:0|0:0,0:0:0:0:
502,247,143644,5,0,3:0:0:0:
457,335,143981,1,8,0:0:0:0:
383,268,144318,2,0,L|378:158,1,110,8|4,0:3|0:0,0:0:0:0:
198,73,145329,5,8,0:0:0:0:
263,147,145666,1,8,0:0:0:0:
327,71,146003,1,8,0:0:0:0:
384,151,146340,6,0,L|379:261,1,110,4|8,0:0|0:0,0:0:0:0:
279,260,147015,2,0,B|237:216|161:225|128:291|148:343,1,220,2|0,0:0|3:0,0:0:0:0:
50,337,148026,2,0,B|43:298|51:261|70:231,1,110,8|2,0:0|0:0,0:0:0:0:
33,139,148700,1,8,0:0:0:0:
111,78,149037,6,0,B|164:94|164:94|216:77,1,110,8|8,0:3|0:3,0:0:0:0:
265,79,149543,2,0,L|374:80,1,110,8|8,0:3|0:3,0:0:0:0:
424,82,150048,1,4,0:0:0:0:
391,277,150722,5,8,0:0:0:0:
435,188,151060,1,8,0:0:0:0:
337,193,151397,1,8,0:0:0:0:
279,273,151734,6,0,B|245:254|205:255|173:272,1,110,4|8,0:0|0:0,0:0:0:0:
95,333,152408,1,0,0:0:0:0:
29,258,152745,2,0,L|25:148,1,110,8|0,0:0|3:0,0:0:0:0:
64,57,153419,1,8,0:0:0:0:
143,116,153756,1,0,0:0:0:0:
238,90,154093,1,8,0:0:0:0:
301,165,154430,6,0,B|350:180|394:153|394:153|444:204|427:266,1,220,8|8,0:3|0:3,0:0:0:0:
361,339,155442,6,0,B|317:300|253:300|210:334,1,165,4|0,0:0|3:0,0:0:0:0:
161,321,156116,2,0,B|139:288|138:249|152:216,1,110,8|8,0:0|0:0,0:0:0:0:
218,142,156790,1,8,0:0:0:0:
126,103,157127,6,0,L|16:117,1,110,4|8,0:0|0:0,0:0:0:0:
10,215,157801,2,0,L|28:325,1,110,0|8,3:0|0:0,0:0:0:0:
122,297,158475,2,0,B|153:273|193:271|226:286,1,110,4|8,0:0|0:0,0:0:0:0:
294,359,159149,2,0,B|329:376|368:370|397:348,1,110,0|8,0:0|0:0,0:0:0:0:
447,261,159824,6,0,L|453:151,1,110,4|8,0:0|0:0,0:0:0:0:
408,63,160498,2,0,B|354:75|354:75|300:62,2,110,0|8|4,0:0|0:0|0:0,0:0:0:0:
454,151,161509,1,8,0:0:0:0:
398,233,161846,2,0,L|291:258,1,110,0|8,3:0|0:0,0:0:0:0:
256,192,162520,12,4,165217,0:0:0:0:
256,192,165891,5,2,0:0:0:0:
435,108,166565,2,0,B|435:145|426:167|426:167|439:189|444:220|444:220|435:240|435:267,1,165,8|8,0:0|0:0,0:0:0:0:
400,302,167239,2,0,L|289:297,1,110,8|8,0:3|0:0,0:0:0:0:
194,322,167914,6,0,B|164:348|125:352|92:338,1,110,4|8,0:0|0:0,0:0:0:0:
52,308,168419,2,0,L|45:143,1,165,8|8,0:0|0:0,0:0:0:0:
95,57,169262,1,4,0:0:0:0:
184,95,169599,2,0,B|207:127|209:167|192:199,1,110,8|2,0:0|0:0,0:0:0:0:
272,259,170273,1,8,0:0:0:0:
338,185,170610,6,0,L|447:189,1,110,4|8,0:0|0:0,0:0:0:0:
485,155,171116,2,0,B|522:107|504:33|437:8|386:32,1,220,8|4,0:0|0:0,0:0:0:0:
299,84,172127,2,0,L|228:81,1,55,0|8,0:0|0:0,0:0:0:0:
188,164,172633,2,0,B|154:143|114:143|82:160,1,110,8|8,0:0|0:0,0:0:0:0:
35,246,173307,6,0,L|41:355,1,110,4|8,0:0|0:0,0:0:0:0:
137,377,173981,1,2,0:0:0:0:
215,317,174318,1,8,0:0:0:0:
215,317,174487,2,0,B|268:304|268:304|322:315,1,110,4|0,0:0|0:0,0:0:0:0:
370,327,174992,2,0,L|376:218,1,110,8|2,0:0|0:0,0:0:0:0:
294,142,175666,1,8,0:0:0:0:
313,45,176003,6,0,B|393:74|393:74|468:49,2,165,4|2|8,0:0|0:0|0:0,0:0:0:0:
290,89,177183,2,0,L|303:254,1,165,4|8,0:0|0:0,0:0:0:0:
212,294,178026,2,0,L|202:184,1,110,2|8,0:0|0:0,0:0:0:0:
106,207,178700,5,4,0:0:0:0:
10,182,179037,2,0,B|-5:146|1:107|21:77,1,110,8|2,0:0|0:0,0:0:0:0:
115,44,179711,1,8,0:0:0:0:
124,143,180048,2,0,L|126:252,1,110,4|8,0:0|0:0,0:0:0:0:
200,318,180722,2,0,B|231:294|271:290|305:304,1,110,2|8,0:0|0:0,0:0:0:0:
397,337,181397,6,0,L|405:227,1,110,4|8,0:0|0:0,0:0:0:0:
312,191,182071,2,0,L|320:81,1,110,0|8,0:0|0:0,0:0:0:0:
324,32,182576,2,0,B|288:78|223:87|177:57,1,165,4|4,0:0|0:0,0:0:0:0:
160,154,183419,2,0,B|125:173|84:167|56:145,2,110,4|4|4,0:0|0:0|0:0,0:0:0:0:
244,206,184430,5,8,0:0:0:0:
244,206,184599,2,0,L|232:316,1,110,2|8,0:0|0:0,0:0:0:0:
268,349,185105,1,8,0:0:0:0:
268,349,185273,2,0,B|331:329|331:329|372:346|428:346,1,165,4|8,0:0|0:0,0:0:0:0:
418,247,186116,2,0,B|444:217|451:178|442:143,1,110,0|8,0:0|0:0,0:0:0:0:
405,52,186790,6,0,B|352:66|352:66|245:38,2,165,4|4|12,0:0|0:0|0:0,0:0:0:0:
423,149,188138,1,4,0:0:0:0:
360,225,188475,2,0,B|328:248|289:251|255:239,1,110,8|8,0:0|0:0,0:0:0:0:
180,174,189149,1,8,0:0:0:0:
256,110,189487,5,4,0:0:0:0:
256,192,189571,12,4,194880,0:0:0:0:
355,32,200273,6,0,L|345:155,1,110,4|8,0:0|0:0,0:0:0:0:
400,223,200947,2,0,B|443:236|443:236|505:218,1,110,0|8,0:0|0:0,0:0:0:0:
504,316,201621,2,0,B|489:352|452:372|416:367,1,110,0|8,0:0|0:0,0:0:0:0:
327,320,202296,2,0,L|218:314,2,110,0|8|4,0:0|0:0|0:0,0:0:0:0:
345,222,203307,6,0,B|344:146|265:89|179:122|154:189,1,275,8|4,0:0|0:0,0:0:0:0:
108,102,204487,2,0,L|114:47,1,55,0|8,0:0|0:0,0:0:0:0:
20,80,204992,2,0,L|32:189,1,110,0|8,0:0|0:0,0:0:0:0:
69,281,205666,6,0,B|121:313|189:298|224:244|221:190,1,220,4|2,0:0|0:0,0:0:0:0:
123,196,206678,1,8,0:0:0:0:
123,196,206846,2,0,B|118:257|163:310|227:317|273:289,1,220,4|2,0:0|0:0,0:0:0:0:
320,268,207689,2,0,L|310:377,2,110,2|8|4,0:0|0:0|0:0,0:0:0:0:
256,192,208531,12,0,211060,0:0:0:0:
50,342,221846,6,0,L|225:324,1,176,4|0,0:0|3:0,0:0:0:0:
367,220,223194,2,0,L|191:202,1,176,0|0,0:0|3:0,0:0:0:0:
112,44,224543,2,0,B|152:16|204:19|242:49|258:88,2,176,0|0|0,0:0|3:0|0:0,0:0:0:0:
57,113,226228,1,0,0:0:0:0:
61,200,226565,2,0,L|65:299,1,88,0|0,3:0|0:0,0:0:0:0:
127,349,227239,6,0,B|182:339|182:339|235:349,1,110,4|0,0:0|3:0,0:0:0:0:
334,340,227914,2,0,L|345:230,1,110,0|0,3:0|3:0,0:0:0:0:
333,132,228588,2,0,B|296:180|224:186|175:141|169:87,1,220,0|0,3:0|3:0,0:0:0:0:
87,139,229599,1,0,3:0:0:0:
256,192,229936,12,4,231116,0:0:0:0:
81,152,231958,6,0,L|88:261,1,110,0|8,0:0|0:0,0:0:0:0:
181,228,232633,6,0,L|188:337,1,110,4|8,0:0|0:0,0:0:0:0:
229,365,233138,2,0,B|246:323|293:301|338:315|362:347,1,165,8|8,0:0|0:0,0:0:0:0:
452,304,233981,1,4,0:0:0:0:
395,222,234318,2,0,L|409:113,2,110,8|2|8,0:0|0:0|0:0,0:0:0:0:
307,176,235329,6,0,L|292:285,1,110,4|8,0:0|0:0,0:0:0:0:
284,334,235835,2,0,B|249:388|165:391|122:321|144:263,1,220,8|4,0:0|0:0,0:0:0:0:
181,185,236846,2,0,L|188:130,1,55,0|8,0:0|0:0,0:0:0:0:
285,108,237352,2,0,B|296:145|325:171|360:180,1,110,8|8,0:0|0:0,0:0:0:0:
309,265,238026,6,0,L|417:283,1,110,4|8,0:0|0:0,0:0:0:0:
485,355,238700,1,2,0:0:0:0:
388,375,239037,1,8,0:0:0:0:
388,375,239206,2,0,B|329:365|329:365|271:375,1,110,4|0,0:0|0:0,0:0:0:0:
230,381,239711,2,0,L|232:272,1,110,8|2,0:0|0:0,0:0:0:0:
303,202,240385,1,8,0:0:0:0:
259,111,240722,6,0,B|223:127|184:123|152:106,1,110,4|8,0:0|0:0,0:0:0:0:
107,86,241228,2,0,L|109:195,1,110,2|0,0:0|0:0,0:0:0:0:
15,164,241902,2,0,L|16:329,1,165,4|8,0:0|0:0,0:0:0:0:
112,305,242745,1,2,0:0:0:0:
185,372,243082,1,8,0:0:0:0:
279,344,243419,6,0,B|297:309|294:269|276:238,1,110,4|8,0:0|0:0,0:0:0:0:
248,143,244093,2,0,L|357:149,1,110,2|8,0:0|0:0,0:0:0:0:
436,88,244767,1,4,0:0:0:0:
362,20,245105,1,8,0:0:0:0:
267,49,245442,2,0,L|158:55,1,110,2|8,0:0|0:0,0:0:0:0:
144,153,246116,6,0,B|113:128|73:126|41:141,1,110,4|8,0:0|0:0,0:0:0:0:
22,238,246790,2,0,L|32:348,1,110,2|8,0:0|0:0,0:0:0:0:
74,372,247296,2,0,B|129:355|129:355|235:369,1,165,4|4,0:0|0:0,0:0:0:0:
215,272,248138,2,0,L|323:254,1,110,4|4,0:0|0:0,0:0:0:0:
274,168,248812,6,0,L|110:144,2,165,4|2|8,0:0|0:0|0:0,0:0:0:0:
306,130,249992,2,0,B|337:96|387:89|427:114|444:150,1,165,4|8,0:0|0:0,0:0:0:0:
486,239,250835,2,0,L|477:348,1,110,0|8,0:0|0:0,0:0:0:0:
382,319,251509,6,0,B|351:353|301:360|261:335|244:299,2,165,4|4|12,0:0|0:0|0:0,0:0:0:0:
412,224,252857,1,4,0:0:0:0:
330,168,253194,2,0,L|336:58,1,110,8|8,0:0|0:0,0:0:0:0:
238,78,253869,1,8,0:0:0:0:
141,98,254206,5,4,0:0:0:0:
198,178,254543,2,0,B|218:211|216:251|196:281,1,110,8|2,0:0|0:0,0:0:0:0:
113,337,255217,2,0,B|91:304|91:264|110:233,1,110,8|0,0:0|3:0,0:0:0:0:
23,186,255891,2,0,L|35:75,1,110,8|2,0:0|0:0,0:0:0:0:
119,25,256565,1,8,0:0:0:0:
152,117,256902,6,0,B|230:99|230:99|284:122|284:122|361:98,2,220,4|2|4,0:0|0:0|0:0,0:0:0:0:
100,201,258588,1,8,0:0:0:0:
100,201,258756,2,0,L|108:326,1,110,0|8,0:0|0:0,0:0:0:0:
131,353,259262,2,0,B|165:373|206:369|235:348,1,110,8|4,0:0|0:0,0:0:0:0:
315,290,259936,6,0,L|370:290,1,55,8|0,0:0|0:0,0:0:0:0:
325,201,260442,2,0,L|270:201,1,55,0|8,0:0|0:0,0:0:0:0:
187,146,260947,2,0,B|145:216|22:196|9:68|92:19|154:44,1,330,4|8,0:0|0:0,0:0:0:0:
259,54,262296,6,0,B|370:38|370:38|415:76|396:135,1,220,4|2,0:0|0:0,0:0:0:0:
315,192,263307,1,8,0:0:0:0:
315,192,263475,2,0,L|429:195,1,110,8|8,0:0|0:0,0:0:0:0:
488,272,264149,1,8,0:0:0:0:
256,192,264992,5,4,0:0:0:0:
256,192,265076,12,4,275442,0:0:0:0:
